Skip to main content

Monks of Doom Live at Hemlock Tavern on 2010-06-01




01. intro
02. Tanguedia (Reprise)
03. Going South
04. Calvary
05. Vs Montana
06. Light In The Sky
07. Vaporize Your Crystals
08. In Anticipation Of The Pope
09. The Traveler
10. Heiroglyphic
11. Chang
12. Unexplained Murders
13. banter - David, he was a real asshole!
14. Poison
15. Riverbed
16. Let's Split
17. Ukrainian Technological Faith Dance
18. Oh Well
19. encore break
20. Fur Immer
(1:32:49)


Collection MonksofDoom
Band/Artist Monks of Doom
Venue Hemlock Tavern
Location San Francisco CA USA

Source DPA 4061 mics > Sony PCM-D50 > WAV @48/24
Lineage WAV > Digital Performer 4 (adjust levels with volume tool & limiter, output at 48/24) > WAV > Audacity 1.3.12 (tracking & fades) > WAVs > xACT 1.71 (encoding & FLAC tags) > FLAC level 8 lossless encoding
Taped by Seteeet
Transferred by morst

Notes

*** 24-bit high resolution version NOT for CD burning ***

Chaos Butterfly opened for Monks Of Doom

Recorded by Seteeet:
DPA 4061 mics > Sony PCM-D50 > WAV @48/24

Mics were on a mini tripod hung on the rear wall on some office clips about 8 feet above the floor

SHNTOOL:
length expanded size cdr WAVE problems fmt ratio filename
1:29.360 25735724 B cxx -- ---xx MoD2010-06-01-2448t01.flac
3:18.907 57285164 B cxx -- ---xx MoD2010-06-01-2448t02.flac
7:00.173 121009964 B cxx -- ---xx MoD2010-06-01-2448t03.flac
6:04.747 105047084 B cxx -- ---xx MoD2010-06-01-2448t04.flac
5:10.320 89372204 B cxx -- ---xx MoD2010-06-01-2448t05.flac
5:41.347 98307884 B cxx -- ---xx MoD2010-06-01-2448t06.flac
3:59.067 68851244 B cxx -- ---xx MoD2010-06-01-2448t07.flac
3:49.173 66001964 B cxx -- ---xx MoD2010-06-01-2448t08.flac
7:07.933 123244844 B cxx -- ---xx MoD2010-06-01-2448t09.flac
4:42.560 81377324 B cxx -- ---xx MoD2010-06-01-2448t10.flac
4:04.053 70287404 B cxx -- ---xx MoD2010-06-01-2448t11.flac
4:19.307 74680364 B cxx -- ---xx MoD2010-06-01-2448t12.flac
2:00.853 34805804 B cxx -- ---xx MoD2010-06-01-2448t13.flac
7:14.387 125103404 B cxx -- ---xx MoD2010-06-01-2448t14.flac
3:35.000 61920044 B cxx -- ---xx MoD2010-06-01-2448t15.flac
1:34.653 27260204 B cxx -- ---xx MoD2010-06-01-2448t16.flac
4:36.680 79683884 B cxx -- ---xx MoD2010-06-01-2448t17.flac
4:22.960 75732524 B cxx -- ---xx MoD2010-06-01-2448t18.flac
1:16.547 22045484 B cxx -- ---xx MoD2010-06-01-2448t19.flac
11:20.240 195909164 B cxx -- ---xx MoD2010-06-01-2448t20.flac
92:48.267 1603661680 B 0.6945 (20 files)

Reviews

There are no reviews yet. Be the first one to write a review.
DOWNLOAD OPTIONS
In Collection
Monks of Doom
In Collection
Live Music Archive
Uploaded by
morst
on 8/2/2010
Views
149
Favorites
1
PEOPLE ALSO FOUND
Monks of Doom
by Monks of Doom
2,283
1
0
Source: Stereo mic > Sony D3 > MCAS
Monks of Doom
by Monks of Doom
22,152
1
3
( 3 reviews )
Source: Realistic 33-1063 omni mic > Marantz PMD430 cassette deck w/ Dolby B NR
Monks of Doom
by Monks of Doom
4,889
2
2
( 2 reviews )
Source: AUD > MD
Monks of Doom
by Monks of Doom
149
1
0
Source: DPA 4061 mics > Sony PCM-D50 > WAV @48/24
Monks of Doom
by Monks of Doom
2,813
1
1
( 1 reviews )
Source: ECM 929> D6> M EQ 230 > SV-3700 > HHB 830 30'Stage Center
Monks of Doom
by Monks of Doom
1,276
1
0
Source: AKG C522MS ("The Pickle Mic") > Grace Lunatec V3 (mic preamp & A>D converter) + Soundcraft 800B SBD > Edirol R44 > WAVs @48kHz/24bit
Monks of Doom
by Monks of Doom
7,350
2
3
( 3 reviews )
Source: AUD > MD
Monks of Doom
by Monks of Doom
2,828
1
2
( 2 reviews )
Source: SBD?
Monks of Doom
by Monks of Doom
1,372
1
0
Source: SBD?
Monks of Doom
by Monks of Doom
783
1
3
( 3 reviews )
Source: Neumann KM-140 > Beyer MV100 > Sony SBM-1 > Sony D8